Torrent's details

Die 120 Tage Von Sodom UNCUT REMASTERED GERMAN 1975 1080p BluRay x264
ExperimentalItalianFascistLibertinesTeenagersSexual TorturePhysical AbuseMale/FemaleNudityBisexualStr8 SexGay Sex
Four fascist libertines round up nine perfect specimens of youth and subject to 120 days of physical & sexual torture.

Year.............: 1975
Country..........: Italy | France
Runtime..........: 116 Minutes
Distributor..: Criterion
Language.........: German, English, Italian
Subtitles........: German,English (optional)



General
Unique ID                      : 249168224636503456311555165085756892661 (0xBB740DF3D3355498AA04B4B8DEB925F5)
Complete name                  : E:\Die.120.Tage.Von.Sodom.UNCUT.GERMAN.1975.1080p.BluRay.x264.mkv
Format                         : Matroska
Format version                 : Version 2
File size                      : 11.2 GiB
Duration                       : 1h 56mn
Overall bit rate               : 13.7 Mbps
Movie name                     : Die 120 Tage von Sodom (1975) UNCUT.REMASTERED.1080p
Encoded date                   : UTC 2019-03-04 11:41:22
Writing application            : mkvmerge v5.6.0 ('Kenya Kane') built on May 27 2012 16:44:04
Writing library                : libebml v1.2.3 + libmatroska v1.3.0
Cover                          : Yes
Attachments                    : cover.jpg

Video
ID                             : 1
Format                         : AVC
Format/Info                    : Advanced Video Codec
Format profile                 : High@L4.1
Format settings, CABAC         : Yes
Format settings, ReFrames      : 4 frames
Muxing mode                    : Header stripping
Codec ID                       : V_MPEG4/ISO/AVC
Duration                       : 1h 56mn
Bit rate                       : 12.7 Mbps
Width                          : 1 920 pixels
Height                         : 1 040 pixels
Display aspect ratio           : 1.85:1
Frame rate mode                : Constant
Frame rate                     : 23.976 (24000/1001) fps
Color space                    : YUV
Chroma subsampling             : 4:2:0
Bit depth                      : 8 bits
Scan type                      : Progressive
Bits/(Pixel*Frame)             : 0.265
Stream size                    : 10.1 GiB (91%)
Title                          : Salo.or.the.120.Days.of.Sodom.1975.REMASTERED.1080p
Writing library                : x264 core 148 r2744 b97ae06
Encoding settings              : cabac=1 / ref=4 / deblock=1:-3:-3 / analyse=0x3:0x133 / me=umh / subme=9 / psy=1 / psy_rd=1.00:0.25 / mixed_ref=1 / me_range=24 / chroma_me=1 / trellis=1 / 8x8dct=1 / cqm=0 / deadzone=21,11 / fast_pskip=1 / chroma_qp_offset=-4 / threads=24 / lookahead_threads=2 / sliced_threads=0 / nr=0 / decimate=1 / interlaced=0 / bluray_compat=0 / constrained_intra=0 / bframes=3 / b_pyramid=2 / b_adapt=2 / b_bias=0 / direct=3 / weightb=1 / open_gop=0 / weightp=2 / keyint=240 / keyint_min=24 / scenecut=40 / intra_refresh=0 / rc_lookahead=60 / rc=2pass / mbtree=1 / bitrate=12671 / ratetol=1.0 / qcomp=0.60 / qpmin=0 / qpmax=69 / qpstep=4 / cplxblur=20.0 / qblur=0.5 / ip_ratio=1.40 / aq=1:0.75
Language                       : Italian
Default                        : Yes
Forced                         : Yes

Audio #1
ID                             : 2
Format                         : AC-3
Format/Info                    : Audio Coding 3
Mode extension                 : CM (complete main)
Format settings, Endianness    : Big
Muxing mode                    : Header stripping
Codec ID                       : A_AC3
Duration                       : 1h 56mn
Bit rate mode                  : Constant
Bit rate                       : 384 Kbps
Channel(s)                     : 2 channels
Channel positions              : Front: L R
Sampling rate                  : 48.0 KHz
Frame rate                     : 31.250 fps (1536 spf)
Compression mode               : Lossy
Stream size                    : 321 MiB (3%)
Title                          : German Dolby Digital Audio 2.0 @ 384 kbps
Language                       : German
Default                        : Yes
Forced                         : Yes

Audio #2
ID                             : 3
Format                         : AC-3
Format/Info                    : Audio Coding 3
Mode extension                 : CM (complete main)
Format settings, Endianness    : Big
Muxing mode                    : Header stripping
Codec ID                       : A_AC3
Duration                       : 1h 56mn
Bit rate mode                  : Constant
Bit rate                       : 192 Kbps
Channel(s)                     : 1 channel
Channel positions              : Front: C
Sampling rate                  : 48.0 KHz
Frame rate                     : 31.250 fps (1536 spf)
Compression mode               : Lossy
Stream size                    : 160 MiB (1%)
Title                          : English Dolby Digital Audio 1.0 @ 192 kbps
Language                       : English
Default                        : No
Forced                         : No

Audio #3
ID                             : 4
Format                         : AC-3
Format/Info                    : Audio Coding 3
Mode extension                 : CM (complete main)
Format settings, Endianness    : Big
Muxing mode                    : Header stripping
Codec ID                       : A_AC3
Duration                       : 1h 56mn
Bit rate mode                  : Constant
Bit rate                       : 448 Kbps
Channel(s)                     : 1 channel
Channel positions              : Front: C
Sampling rate                  : 48.0 KHz
Frame rate                     : 31.250 fps (1536 spf)
Compression mode               : Lossy
Stream size                    : 374 MiB (3%)
Title                          : Italian Dolby Digital Audio 1.0 @ 448 kbps
Language                       : Italian
Default                        : No
Forced                         : No

Text #1
ID                             : 5
Format                         : UTF-8
Codec ID                       : S_TEXT/UTF8
Codec ID/Info                  : UTF-8 Plain Text
Language                       : German
Default                        : No
Forced                         : No

Text #2
ID                             : 6
Format                         : UTF-8
Codec ID                       : S_TEXT/UTF8
Codec ID/Info                  : UTF-8 Plain Text
Language                       : German
Default                        : No
Forced                         : No

Text #3
ID                             : 7
Format                         : PGS
Muxing mode                    : zlib
Codec ID                       : S_HDMV/PGS
Codec ID/Info                  : Picture based subtitle format used on BDs/HD-DVDs
Title                          : Eng/SUP
Language                       : English
Default                        : No
Forced                         : No

Menu
00:00:00.000                   : en:00:00:00.000
00:04:44.701                   : en:00:04:44.701
00:09:11.551                   : en:00:09:11.551
00:13:41.654                   : en:00:13:41.654
00:19:57.571                   : en:00:19:57.571
00:23:29.742                   : en:00:23:29.742
00:28:34.129                   : en:00:28:34.129
00:33:40.101                   : en:00:33:40.101
00:39:59.689                   : en:00:39:59.689
00:43:58.553                   : en:00:43:58.553
00:47:01.944                   : en:00:47:01.944
00:54:01.280                   : en:00:54:01.280
00:56:51.199                   : en:00:56:51.199
01:05:01.523                   : en:01:05:01.523
01:09:38.424                   : en:01:09:38.424
01:15:36.323                   : en:01:15:36.323
01:21:17.206                   : en:01:21:17.206
01:27:05.011                   : en:01:27:05.011
01:33:15.465                   : en:01:33:15.465
01:36:44.632                   : en:01:36:44.632
01:40:31.234                   : en:01:40:31.234
01:46:31.760                   : en:01:46:31.760
01:49:19.762                   : en:01:49:19.762

Homepage: N/A
Show Files:
1 file