Torrent's details

smileandkyle -cam capture 720p
barebacksome analoralrussians
General
Complete name                  : E:\capture\chaturbate\smileandkyle\edit_2019.05.28_14.15.59_smileandkyle.mp4
Format                         : MPEG-4
Format profile                 : Base Media
Codec ID                       : isom (isom/iso2/avc1/mp41)
File size                      : 1.10 GiB
Duration                       : 58mn 41s
Overall bit rate               : 2 695 Kbps
Writing application            : Lavf57.83.100

Video
ID                             : 1
Format                         : AVC
Format/Info                    : Advanced Video Codec
Format profile                 : Main@L3.1
Format settings, CABAC         : Yes
Format settings, ReFrames      : 1 frame
Format settings, GOP           : M=1, N=15
Codec ID                       : avc1
Codec ID/Info                  : Advanced Video Coding
Duration                       : 58mn 40s
Bit rate                       : 2 592 Kbps
Width                          : 1 280 pixels
Height                         : 720 pixels
Display aspect ratio           : 16:9
Frame rate mode                : Variable
Frame rate                     : 30.000 fps
Minimum frame rate             : 29.412 fps
Maximum frame rate             : 31.250 fps
Color space                    : YUV
Chroma subsampling             : 4:2:0
Bit depth                      : 8 bits
Scan type                      : Progressive
Bits/(Pixel*Frame)             : 0.094
Stream size                    : 1.06 GiB (96%)

Audio
ID                             : 2
Format                         : AAC
Format/Info                    : Advanced Audio Codec
Format profile                 : LC
Codec ID                       : 40
Duration                       : 58mn 41s
Bit rate mode                  : Constant
Bit rate                       : 93.6 Kbps
Channel(s)                     : 2 channels
Channel positions              : Front: L R
Sampling rate                  : 44.1 KHz
Frame rate                     : 43.066 fps (1024 spf)
Compression mode               : Lossy
Stream size                    : 39.3 MiB (3%)
Default                        : Yes
Alternate group                : 1

Homepage: N/A
Show Files:
1 file