Torrent's details

thermalsis- part 4 -cam capture-1080p
barebackanalcrossgenerationoralrussiansdeep penetrationkissingrimmingflip-flop
General
Complete name                  : E:\capture\chaturbate\thermalsis\joint_2019.05.24-26_thermalsis.mp4
Format                         : MPEG-4
Format profile                 : Base Media
Codec ID                       : isom (isom/iso2/avc1/mp41)
File size                      : 4.49 GiB
Duration                       : 2h 4mn
Overall bit rate mode          : Variable
Overall bit rate               : 5 187 Kbps
Writing application            : Lavf57.83.100

Video
ID                             : 1
Format                         : AVC
Format/Info                    : Advanced Video Codec
Format profile                 : High@L4
Format settings, CABAC         : Yes
Format settings, ReFrames      : 1 frame
Format settings, GOP           : M=1, N=15
Codec ID                       : avc1
Codec ID/Info                  : Advanced Video Coding
Duration                       : 2h 4mn
Bit rate                       : 5 048 Kbps
Width                          : 1 920 pixels
Height                         : 1 080 pixels
Display aspect ratio           : 16:9
Frame rate mode                : Variable
Frame rate                     : 29.970 (29970/1000) fps
Minimum frame rate             : 0.221 fps
Maximum frame rate             : 31.250 fps
Original frame rate            : 30.000 fps
Color space                    : YUV
Chroma subsampling             : 4:2:0
Bit depth                      : 8 bits
Scan type                      : Progressive
Bits/(Pixel*Frame)             : 0.081
Stream size                    : 4.37 GiB (97%)

Audio
ID                             : 2
Format                         : AAC
Format/Info                    : Advanced Audio Codec
Format profile                 : LC
Codec ID                       : 40
Duration                       : 2h 4mn
Bit rate mode                  : Variable
Bit rate                       : 126 Kbps
Maximum bit rate               : 139 Kbps
Channel(s)                     : 2 channels
Channel positions              : Front: L R
Sampling rate                  : 44.1 KHz
Frame rate                     : 43.066 fps (1024 spf)
Compression mode               : Lossy
Stream size                    : 111 MiB (2%)
Default                        : Yes
Alternate group                : 1

Homepage: N/A
Show Files:
1 file