Torrent's details

Hyakujitsu no Bara (Maiden Rose) (2009)
YaoiBaraDramaRomanceActionAdventureMilitaryWar
Klaus von Wolfstadt met Taki Reizen in 1918. Klaus and his family (parents, brother and sister) visited the Far Eastern country to attend the coronation ceremony. After having gotten lost in the gardens surrounding the area, he stumbled upon a young Taki, who asked him to help him pick some flowers from one of the trees above them to place them on his ceremonial headgear. Klaus agreed, and after picking the flowers for Taki, Taki asked Klaus if he would give himself to him and be his knight.

Nine years later, Taki and Klaus met again at Luckenwalde Military Academy, where Taki had gone to learn how to operate tanks. Klaus was given orders to befriend Taki, and both observe and protect him. Through the course of the year, the two fell in love. When Eurote broke a treaty with the Western Alliance and invaded Dheedene, Taki was ordered to be deported back to his country. The night after he was ordered to be sent home, he and Klaus had their first romantic encounter.

A few days later, they met at Luckenwalde station, and rode on a train heading back to Taki's country. During the train ride home, Klaus nearly took Taki's purity, in a moment of passion. However, Taki, being a member of the Reizen family which is favored by the Gods, has the burden of remaining celibate until marriage. Considering the consequences on himself and on the people who believe in him, Taki ended his relationship with Klaus, but only after Klaus was sworn to him as his knight. This binds the two together for the rest of their lives.

Now the two have to fight in both the war between Taki's country and the Western Alliance, and the war between each other.




Format                                   : AVI
Format/Info                              : Audio Video Interleave
File size                                : 197 MiB
Duration                                 :

Overall bit rate                         : 949 Kbps
Writing application                      : VirtualDubMod 1.5.10.1 (build 2366/release)
Writing library                          : VirtualDubMod build 2366/release

Video
ID                                       : 0
Format                                   : MPEG-4 Visual
Format profile                           : Advanced Simple@L5
Format settings, BVOP                    : 2
Format settings, QPel                    : No
Format settings, GMC                     : No warppoints
Format settings, Matrix                  : Default (H.263)
Muxing mode                              : Packed bitstream
Codec ID                                 : XVID
Codec ID/Hint                            : XviD
Duration                                 : 29mn 1s
Bit rate                                 : 812 Kbps
Width                                    : 704 pixels
Height                                   : 396 pixels
Display aspect ratio                     : 16:9
Frame rate                               : 23.976 fps
Color space                              : YUV
Chroma subsampling                       : 4:2:0
Bit depth                                : 8 bits
Scan type                                : Progressive
Compression mode                         : Lossy
Bits/(Pixel*Frame)                       : 0.121
Stream size                              : 169 MiB (86%)
Writing library                          : XviD 1.2.0.dev47 (UTC 2006-11-01)

Audio
ID                                       : 1
Format                                   : MPEG Audio
Format version                           : Version 1
Format profile                           : Layer 3
Mode                                     : Joint stereo
Mode extension                           : MS Stereo
Codec ID                                 : 55
Codec ID/Hint                            : MP3
Duration                                 : 29mn 1s
Bit rate mode                            : Constant
Bit rate                                 : 128 Kbps
Channel(s)                               : 2 channels
Sampling rate                            : 48.0 KHz
Compression mode                         : Lossy
Stream size                              : 26.6 MiB (13%)
Alignment                                : Split accross interleaves
Interleave, duration                     : 42 ms (1.00 video frame)
Interleave, preload duration             : 500 ms
Homepage: N/A
Show Files:
2 files