Torrent's details

Bohemian Rhapsody (2018 ) - Perfect In-Sync Sound!
bohemian rhapsodyqueenfreddie mercurybisexualgaylive aid
Bohemian Rhapsody (2018 ) - Perfect In-Sync Sound!

Bohemian.Rhapsody.2018.1080p.AMZN.WEB-DL.DDP5.1.H.264-NTG

NOTE: Not my download/rip, but I watched this tonight with Videostream on Google Chrome to the Chromecast on my 55" tv, and it's perfect. Unlike the DVD screener rip passed around online, this has flawless and perfect, in-sync Dolby Digital Plus 5.1 audio (aka E-AC3 audio).

Also has optional English SDH subtitles encoded in the MKV file. Just turned them on in your media player.

Bohemian Rhapsody is a foot-stomping celebration of Queen, their music and their extraordinary lead singer Freddie Mercury. Freddie defied stereotypes and shattered convention to become one of the most beloved entertainers on the planet. The film traces the meteoric rise of the band through their iconic songs and revolutionary sound. They reach unparalleled success, but in an unexpected turn Freddie, surrounded by darker influences, shuns Queen in pursuit of his solo career. Having suffered greatly without the collaboration of Queen, Freddie manages to reunite with his bandmates just in time for Live Aid. While bravely facing a recent AIDS diagnosis, Freddie leads the band in one of the greatest performances in the history of rock music. Queen cements a legacy that continues to inspire outsiders, dreamers and music lovers to this day.

Fantastic and outstanding movie which has received 5 Oscar nominations, including Rami Malek (as Freddie Mercury) for Best Actor. I hope he wins.

Format                                   : Matroska
Format version                           : Version 4
File size                                : 7.19 GiB
Duration                                 : 2 h 14 min
Overall bit rate                         : 7 650 kb/s
Encoded date                             : UTC 2019-01-22 08:15:07
Writing application                      : mkvmerge v21.0.0 ('Tardigrades Will Inherit The Earth') 64-bit
Writing library                          : libebml v1.3.5 + libmatroska v1.4.8

Video
ID                                       : 1
Format                                   : AVC
Format/Info                              : Advanced Video Codec
Format profile                           : High@L4
Format settings                          : CABAC / 4 Ref Frames
Format settings, CABAC                   : Yes
Format settings, RefFrames               : 4 frames
Codec ID                                 : V_MPEG4/ISO/AVC
Duration                                 : 2 h 14 min
Bit rate mode                            : Constant
Bit rate                                 : 7 008 kb/s
Nominal bit rate                         : 10 000 kb/s
Width                                    : 1 920 pixels
Height                                   : 800 pixels
Display aspect ratio                     : 2.40:1
Frame rate mode                          : Constant
Frame rate                               : 23.976 (24000/1001) FPS
Color space                              : YUV
Chroma subsampling                       : 4:2:0
Bit depth                                : 8 bits
Scan type                                : Progressive
Bits/(Pixel*Frame)                       : 0.190
Stream size                              : 6.59 GiB (92%)
Default                                  : Yes
Forced                                   : No
Color range                              : Limited
Color primaries                          : BT.709
Transfer characteristics                 : BT.709
Matrix coefficients                      : BT.709

Audio
ID                                       : 2
Format                                   : E-AC-3
Format/Info                              : Enhanced AC-3
Commercial name                          : Dolby Digital Plus
Codec ID                                 : A_EAC3
Duration                                 : 2 h 14 min
Bit rate mode                            : Constant
Bit rate                                 : 640 kb/s
Channel(s)                               : 6 channels
Channel layout                           : L R C LFE Ls Rs
Sampling rate                            : 48.0 kHz
Frame rate                               : 31.250 FPS (1536 SPF)
Compression mode                         : Lossy
Stream size                              : 616 MiB (8%)
Language                                 : English
Service kind                             : Complete Main
Default                                  : Yes
Forced                                   : No

Text
ID                                       : 3
Format                                   : UTF-8
Codec ID                                 : S_TEXT/UTF8
Codec ID/Info                            : UTF-8 Plain Text
Duration                                 : 2 h 13 min
Bit rate                                 : 62 b/s
Count of elements                        : 2269
Stream size                              : 61.6 KiB (0%)
Title                                    : SDH
Language                                 : English
Default                                  : No
Forced                                   : No

Homepage: https://www.imdb.com/title/tt1727824/
Show Files:
1 file