Torrent's details

Will and Grace S09 German DD51 Dubbed DL 720p AmazonHD x264
GayComedyRomance
Will.and.Grace.S09.German.DD51.Dubbed.DL.720p.AmazonHD.x264

666.40 MiB Will.and.Grace.S09E07.Weihnachten.fuer.Arme.German.DD51.Dubbed.DL.720p.AmazonHD.x264.mkv
648.83 MiB Will.and.Grace.S09E11.Der.Floh.im.Ohr.German.DD51.Dubbed.DL.720p.AmazonHD.x264.mkv
638.66 MiB Will.and.Grace.S09E05.Das.Rubbellos.German.DD51.Dubbed.DL.720p.AmazonHD.x264.mkv
638.21 MiB Will.and.Grace.S09E09.Verrueckt.nach.Larry.German.DD51.Dubbed.DL.720p.AmazonHD.x264.mkv
617.30 MiB Will.and.Grace.S09E13.Kinderarbeit.und.sprechende.Leichen.German.DD51.Dubbed.DL.720p.AmazonHD.x264.mkv
600.43 MiB Will.and.Grace.S09E10.Die.Hochzeit.German.DD51.Dubbed.DL.720p.AmazonHD.x264.mkv
580.46 MiB Will.and.Grace.S09E08.Der.Ohrwurm.German.DD51.Dubbed.DL.720p.AmazonHD.x264.mkv
575.23 MiB Will.and.Grace.S09E15.Der.einzige.Job.German.DD20.Dubbed.DL.720p.AmazonHD.x264.mkv
571.92 MiB Will.and.Grace.S09E12.Die.Drei-Generationen-Nummer.German.DD51.Dubbed.DL.720p.AmazonHD.x264.mkv
565.36 MiB Will.and.Grace.S09E04.Opa.Jack.German.DD51.Dubbed.DL.720p.AmazonHD.x264.mkv
553.36 MiB Will.and.Grace.S09E01.Elf.Jahre.spaeter.German.DD51.Dubbed.DL.720p.AmazonHD.x264.mkv
544.04 MiB Will.and.Grace.S09E03.Der.Notfallkontakt.German.DD51.Dubbed.DL.720p.AmazonHD.x264.mkv
543.15 MiB Will.and.Grace.S09E06.Traurige.Karen.German.DD51.Dubbed.DL.720p.AmazonHD.x264.mkv
514.32 MiB Will.and.Grace.S09E02.Kalte.Dusche.German.DD51.Dubbed.DL.720p.AmazonHD.x264.mkv
512.14 MiB Will.and.Grace.S09E14.Zuckerguss.und.Peitsche.German.DD20.Dubbed.DL.720p.AmazonHD.x264.mkv
499.10 MiB Will.and.Grace.S09E16.Familienverhaeltnisse.German.DD20.Dubbed.DL.720p.AmazonHD.x264.mkv

General
Unique ID                      : 52792976128298120476786251616488441629 (0x27B78EAF018F01B3F59A2CCEF3CEC71D)
Complete name                  : H:\filme\Will.and.Grace\Will.and.Grace.S09.German.DD51.Dubbed.DL.720p.AmazonHD.x264\Will.and.Grace.S09E01.Elf.Jahre.spaeter.German.DD51.Dubbed.DL.720p.AmazonHD.x264.mkv
Format                         : Matroska
Format version                 : Version 4 / Version 2
File size                      : 553 MiB
Duration                       : 20mn 40s
Overall bit rate               : 3 742 Kbps
Encoded date                   : UTC 2018-05-01 10:19:27
Writing application            : mkvmerge v21.0.0 ('Tardigrades Will Inherit The Earth') 64-bit
Writing library                : libebml v1.3.5 + libmatroska v1.4.8

Video
ID                             : 1
Format                         : AVC
Format/Info                    : Advanced Video Codec
Format profile                 : High@L4.1
Format settings, CABAC         : Yes
Format settings, ReFrames      : 9 frames
Codec ID                       : V_MPEG4/ISO/AVC
Duration                       : 20mn 40s
Bit rate                       : 2 844 Kbps
Width                          : 1 280 pixels
Height                         : 720 pixels
Display aspect ratio           : 16:9
Frame rate mode                : Constant
Frame rate                     : 25.000 fps
Color space                    : YUV
Chroma subsampling             : 4:2:0
Bit depth                      : 8 bits
Scan type                      : Progressive
Bits/(Pixel*Frame)             : 0.123
Stream size                    : 421 MiB (76%)
Writing library                : x264 core 155 r2901 7d0ff22
Encoding settings              : cabac=1 / ref=9 / deblock=1:-3:-3 / analyse=0x3:0x133 / me=umh / subme=10 / psy=1 / psy_rd=1.05:0.00 / mixed_ref=1 / me_range=24 / chroma_me=1 / trellis=2 / 8x8dct=1 / cqm=0 / deadzone=21,11 / fast_pskip=1 / chroma_qp_offset=-2 / threads=22 / lookahead_threads=3 / sliced_threads=0 / nr=0 / decimate=1 / interlaced=0 / bluray_compat=0 / constrained_intra=0 / bframes=8 / b_pyramid=2 / b_adapt=2 / b_bias=0 / direct=3 / weightb=1 / open_gop=0 / weightp=2 / keyint=250 / keyint_min=25 / scenecut=40 / intra_refresh=0 / rc_lookahead=60 / rc=crf / mbtree=1 / crf=16.5 / qcomp=0.60 / qpmin=0 / qpmax=69 / qpstep=4 / ip_ratio=1.40 / aq=2:0.90
Default                        : Yes
Forced                         : No
Color range                    : Limited
Color primaries                : BT.709
Transfer characteristics       : BT.709
Matrix coefficients            : BT.709

Audio #1
ID                             : 2
Format                         : AC-3
Format/Info                    : Audio Coding 3
Mode extension                 : CM (complete main)
Format settings, Endianness    : Big
Codec ID                       : A_AC3
Duration                       : 20mn 40s
Bit rate mode                  : Constant
Bit rate                       : 448 Kbps
Channel(s)                     : 6 channels
Channel positions              : Front: L C R, Side: L R, LFE
Sampling rate                  : 48.0 KHz
Frame rate                     : 31.250 fps (1536 spf)
Compression mode               : Lossy
Stream size                    : 66.3 MiB (12%)
Language                       : German
Default                        : Yes
Forced                         : No

Audio #2
ID                             : 3
Format                         : AC-3
Format/Info                    : Audio Coding 3
Mode extension                 : CM (complete main)
Format settings, Endianness    : Big
Codec ID                       : A_AC3
Duration                       : 20mn 40s
Bit rate mode                  : Constant
Bit rate                       : 448 Kbps
Channel(s)                     : 6 channels
Channel positions              : Front: L C R, Side: L R, LFE
Sampling rate                  : 48.0 KHz
Frame rate                     : 31.250 fps (1536 spf)
Compression mode               : Lossy
Stream size                    : 66.3 MiB (12%)
Language                       : English
Default                        : No
Forced                         : No

Homepage: N/A
Show Files:
16 files