Torrent's details

Queer as Folk US S04 1080p AMZN WEB-DL DDP5 1 x264-NTb
DramaRomanceComedyUSAHealth IssuesFriendshipQueer Life
This release is sourced from Amazon.
It's not real 1080p. Just an SD upscale with a bunch of noise added after upscaling.


Based on the British series of the same name, Showtime's 'Queer as Folk' presents the American version. Following the lives of five gay men in Pittsburgh, 'Queer as Folk' is a riveting drama full of sex, drugs, adventure, friendship and love. Although the creators of 'Queer as Folk' wanted to present an honest depiction of gay life, it is by no means a comprehensive depiction. In addition to the usual sexual escapades and relationships of the five friends, the show explores critical gay political and health issues.

Quote:
General
Unique ID                                : 231595911384758961334042372555209377863 (0xAE3BC004CEB5A22C81AB2308DE930847)
Complete name                            : Queer.as.Folk.US.S04E01.Just.a.Little.Help.1080p.AMZN.WEB-DL.DDP5.1.x264-NTb.mkv
Format                                   : Matroska
Format version                           : Version 4
File size                                : 5.42 GiB
Duration                                 : 52 min 1 s
Overall bit rate mode                    : Variable
Overall bit rate                         : 14.9 Mb/s
Encoded date                             : UTC 2017-08-04 21:06:13
Writing application                      : mkvmerge v10.0.0 ('To Drown In You') 64bit
Writing library                          : libebml v1.3.4 + libmatroska v1.4.5

Video
ID                                       : 1
Format                                   : AVC
Format/Info                              : Advanced Video Codec
Format profile                           : High@L4
Format settings                          : CABAC / 4 Ref Frames
Format settings, CABAC                   : Yes
Format settings, RefFrames               : 4 frames
Codec ID                                 : V_MPEG4/ISO/AVC
Duration                                 : 52 min 1 s
Bit rate mode                            : Variable
Bit rate                                 : 14.3 Mb/s
Maximum bit rate                         : 15.0 Mb/s
Width                                    : 1 920 pixels
Height                                   : 1 080 pixels
Display aspect ratio                     : 16:9
Frame rate mode                          : Constant
Frame rate                               : 23.976 (24000/1001) FPS
Color space                              : YUV
Chroma subsampling                       : 4:2:0
Bit depth                                : 8 bits
Scan type                                : Progressive
Bits/(Pixel*Frame)                       : 0.287
Stream size                              : 5.18 GiB (96%)
Writing library                          : x264 core 148 r2623 d5b2374
Encoding settings                        : cabac=1 / ref=4 / deblock=1:-1:-1 / analyse=0x3:0x133 / me=umh / subme=9 / psy=1 / psy_rd=1.00:0.15 / mixed_ref=1 / me_range=24 / chroma_me=1 / trellis=2 / 8x8dct=1 / cqm=0 / deadzone=21,11 / fast_pskip=1 / chroma_qp_offset=-3 / threads=34 / lookahead_threads=5 / sliced_threads=0 / nr=150 / decimate=1 / interlaced=0 / bluray_compat=0 / constrained_intra=0 / bframes=8 / b_pyramid=2 / b_adapt=2 / b_bias=0 / direct=3 / weightb=1 / open_gop=0 / weightp=2 / keyint=120 / keyint_min=61 / scenecut=0 / intra_refresh=0 / rc_lookahead=120 / rc=crf / mbtree=1 / crf=18.0 / qcomp=0.60 / qpmin=0 / qpmax=69 / qpstep=4 / vbv_maxrate=15000 / vbv_bufsize=31250 / crf_max=0.0 / nal_hrd=vbr / filler=0 / ip_ratio=1.40 / aq=3:1.00
Default                                  : Yes
Forced                                   : No
Color range                              : Limited
Color primaries                          : BT.709
Transfer characteristics                 : BT.709
Matrix coefficients                      : BT.709

Audio
ID                                       : 2
Format                                   : E-AC-3
Format/Info                              : Enhanced AC-3
Commercial name                          : Dolby Digital Plus
Codec ID                                 : A_EAC3
Duration                                 : 52 min 1 s
Bit rate mode                            : Constant
Bit rate                                 : 640 kb/s
Channel(s)                               : 6 channels
Channel layout                           : L R C LFE Ls Rs
Sampling rate                            : 48.0 kHz
Frame rate                               : 31.250 FPS (1536 SPF)
Compression mode                         : Lossy
Stream size                              : 238 MiB (4%)
Language                                 : English
Service kind                             : Complete Main
Default                                  : Yes
Forced                                   : No

Text
ID                                       : 3
Format                                   : UTF-8
Codec ID                                 : S_TEXT/UTF8
Codec ID/Info                            : UTF-8 Plain Text
Duration                                 : 51 min 42 s
Bit rate                                 : 81 b/s
Count of elements                        : 1049
Stream size                              : 30.7 KiB (0%)
Language                                 : English
Default                                  : No
Forced                                   : No
Show Files:
14 files