Torrent's details

Merli S02 1080p AMZN WEB-DL DDP2.0 H 264-CasStudio
SpanishHigh SchoolGay TeenagersComing of AgeComing OutGay Love StoryTV SeriesCatalanCatalunya
Staff Note: No English Subtitles with this Release.


This release is sourced from Amazon

Thanks Marius2244 (Description)

---------

Description from Wikipedia, albeit edited:

Merlí is a television series produced by the Catalan Channel TV3 about a philosophy teacher of the same name who encourages students to think freely using unorthodox methods.

The series, created and written by Hector Lozano and directed by Eduard Cortés, premiered on 14 September 2015 in prime time and reached a share of 17.7% with 566,000 viewers. The second season of the series premiered on TV3 on 19 September 2016 and ended on 12 December 2016, and the series' third and final season began airing on 18 September 2017 and ended on 15 January 2018.

Each episode is named after a different philosopher. Influenced by films like Dead Poets Society, Merlí attempts to bring philosophy to the public. Each episode includes the approaches of a great thinker or school, such as the Peripatetics, Nietzsche or Schopenhauer, linking their teachings with fictional events and characters. The theme song is a version of "Flight of the Bumblebee".

Uploader's Notes:

Aside from the main character to whom the series is titled after (Merlí Bergeron), central to the series is the gay love story between Bruno Bergeron (played by David Solans) & Pol Rubio (played by Carlos Cuevas).

image

Quote:
General
Unique ID                                : 153049610658954935587876106885934964625 (0x7324486687C4BCBAA069D9EFE0195F91)
Complete name                            : Merli.S02E01.1080p.AMZN.WEB-DL.DDP2.0.H.264-CasStudio.mkv
Format                                   : Matroska
Format version                           : Version 4
File size                                : 3.45 GiB
Duration                                 : 50 min 30 s
Overall bit rate                         : 9 788 kb/s
Encoded date                             : UTC 2020-01-08 08:04:08
Writing application                      : mkvmerge v38.0.0 ('The Silent Type') 64-bit
Writing library                          : libebml v1.3.9 + libmatroska v1.5.2

Video
ID                                       : 1
Format                                   : AVC
Format/Info                              : Advanced Video Codec
Format profile                           : High@L4
Format settings                          : CABAC / 4 Ref Frames
Format settings, CABAC                   : Yes
Format settings, RefFrames               : 4 frames
Codec ID                                 : V_MPEG4/ISO/AVC
Duration                                 : 50 min 30 s
Bit rate mode                            : Constant
Bit rate                                 : 10 000 kb/s
Width                                    : 1 920 pixels
Height                                   : 1 080 pixels
Display aspect ratio                     : 16:9
Frame rate mode                          : Constant
Frame rate                               : 25.000 FPS
Color space                              : YUV
Chroma subsampling                       : 4:2:0
Bit depth                                : 8 bits
Scan type                                : Progressive
Bits/(Pixel*Frame)                       : 0.193
Stream size                              : 3.37 GiB (98%)
Default                                  : Yes
Forced                                   : No
Color range                              : Limited
Color primaries                          : BT.709
Transfer characteristics                 : BT.709
Matrix coefficients                      : BT.709

Audio
ID                                       : 2
Format                                   : E-AC-3
Format/Info                              : Enhanced AC-3
Commercial name                          : Dolby Digital Plus
Codec ID                                 : A_EAC3
Duration                                 : 50 min 30 s
Bit rate mode                            : Constant
Bit rate                                 : 224 kb/s
Channel(s)                               : 2 channels
Channel layout                           : L R
Sampling rate                            : 48.0 kHz
Frame rate                               : 31.250 FPS (1536 SPF)
Compression mode                         : Lossy
Stream size                              : 80.9 MiB (2%)
Language                                 : Catalan
Service kind                             : Complete Main
Default                                  : Yes
Forced                                   : No

Text
ID                                       : 3
Format                                   : UTF-8
Codec ID                                 : S_TEXT/UTF8
Codec ID/Info                            : UTF-8 Plain Text
Duration                                 : 50 min 16 s
Bit rate                                 : 96 b/s
Count of elements                        : 820
Stream size                              : 35.5 KiB (0%)
Title                                    : SDH
Language                                 : Spanish
Default                                  : No
Forced                                   : No
Show Files:
13 files